osu file format v14

[General]
AudioFilename: anima.mp3
AudioLeadIn: 1500
PreviewTime: 90811
Countdown: 0
SampleSet: Soft
StackLeniency: 0.7
Mode: 3
LetterboxInBreaks: 0
WidescreenStoryboard: 1

[Editor]
DistanceSpacing: 1
BeatDivisor: 4
GridSize: 32
TimelineZoom: 0.1

[Metadata]
Title:ANiMA
TitleUnicode:ANiMA
Artist:xi
ArtistUnicode:xi
Creator:Kuo Kyoka
Version:DECADE's 4K Lv.19
Source:Deemo
Tags:Yusuke Ishiwata World Flagments Comiket 89 Diverse System C89 Extension Full Version Piano Rayark Inc. Soul Alice Masked Lady Deemo's collection Vol.2 Ichigaki Zan_- Rizqy ExPew Starry- DE-CADE [_S_a_k_u_r_a_] Sakura Kyousuke- [Shana_Lesus] Roxas Collab
BeatmapID:870016
BeatmapSetID:397303

[Difficulty]
HPDrainRate:8
CircleSize:4
OverallDifficulty:8
ApproachRate:5
SliderMultiplier:1.4
SliderTickRate:1

[Events]
//Background and Video events
0,0,"BG.jpg",0,0
//Break Periods
//Storyboard Layer 0 (Background)
//Storyboard Layer 1 (Fail)
//Storyboard Layer 2 (Pass)
//Storyboard Layer 3 (Foreground)
//Storyboard Sound Samples

[TimingPoints]
566,326.975476839237,4,2,1,5,1,0
43726,-100,4,2,1,5,0,1
54189,-100,4,2,1,5,0,0
64653,-100,4,2,1,5,0,1
74789,-100,4,2,1,5,0,0
75116,-100,4,2,1,5,0,1
85579,-100,4,2,1,5,0,0
111737,-100,4,2,1,5,0,1
116969,-100,4,2,1,5,0,0
177132,-100,4,2,1,5,0,1
187268,-100,4,2,1,5,0,0
187595,-100,4,2,1,5,0,1
198059,-100,4,2,1,5,0,0
224217,-100,4,2,1,5,0,1
234680,-100,4,2,1,5,0,0
238604,-100,4,2,1,5,0,1
248740,-100,4,2,1,5,0,0
249067,-100,4,2,1,5,0,1
262146,-100,4,2,1,5,0,0

[HitObjects]
192,192,21492,5,0,0:0:0:8:
448,192,21492,128,0,22800:0:0:0:0:
64,192,22800,1,0,0:0:0:8:
320,192,22800,128,0,24108:0:0:0:0:
192,192,24108,1,0,0:0:0:8:
448,192,24108,128,0,25416:0:0:0:0:
64,192,25743,1,0,0:0:0:8:
320,192,26070,1,0,0:0:0:8:
192,192,26397,1,0,0:0:0:8:
448,192,26724,1,0,0:0:0:8:
64,192,26724,128,0,28031:0:0:0:0:
448,192,28031,1,0,0:0:0:8:
192,192,28031,128,0,28685:0:0:0:0:
448,192,28685,1,0,0:0:0:8:
320,192,28685,128,0,29339:0:0:0:0:
64,192,29339,1,0,0:0:0:8:
448,192,29339,128,0,30647:0:0:0:0:
192,192,29993,1,0,0:0:0:8:
320,192,30647,1,0,0:0:0:8:
64,192,30647,1,0,0:0:0:8:
448,192,30974,1,0,0:0:0:8:
192,192,31301,1,0,0:0:0:8:
320,192,31628,1,0,0:0:0:8:
448,192,31955,1,0,0:0:0:8:
64,192,31955,128,0,32773:0:0:0:0:
448,192,32773,1,0,0:0:0:8:
320,192,32936,1,0,0:0:0:8:
192,192,33100,1,0,0:0:0:8:
320,192,33263,128,0,34080:0:0:0:0:
192,192,34080,1,0,0:0:0:8:
320,192,34244,1,0,0:0:0:8:
448,192,34407,1,0,0:0:0:8:
320,192,34571,1,0,0:0:0:8:
64,192,34571,128,0,35225:0:0:0:0:
448,192,35225,128,0,35879:0:0:0:0:
320,192,35879,1,0,0:0:0:8:
64,192,35879,128,0,36533:0:0:0:0:
192,192,36533,128,0,37187:0:0:0:0:
448,192,36533,1,0,0:0:0:8:
448,192,37187,1,0,0:0:0:8:
64,192,37187,1,0,0:0:0:8:
320,192,37268,1,0,0:0:0:8:
192,192,37350,1,0,0:0:0:8:
64,192,37432,1,0,0:0:0:8:
192,192,37514,1,0,0:0:0:8:
320,192,37595,1,0,0:0:0:8:
448,192,37677,1,0,0:0:0:8:
320,192,37759,1,0,0:0:0:8:
192,192,37841,1,0,0:0:0:8:
64,192,37922,1,0,0:0:0:8:
192,192,38004,1,0,0:0:0:8:
320,192,38086,1,0,0:0:0:8:
448,192,38168,1,0,0:0:0:8:
320,192,38249,1,0,0:0:0:8:
192,192,38331,1,0,0:0:0:8:
64,192,38413,1,0,0:0:0:8:
192,192,38495,1,0,0:0:0:8:
448,192,38495,1,0,0:0:0:8:
320,192,38576,1,0,0:0:0:8:
192,192,38658,1,0,0:0:0:8:
64,192,38740,1,0,0:0:0:8:
192,192,38822,1,0,0:0:0:8:
320,192,38903,1,0,0:0:0:8:
192,192,38985,1,0,0:0:0:8:
320,192,39067,1,0,0:0:0:8:
448,192,39149,1,0,0:0:0:8:
64,192,39230,1,0,0:0:0:8:
192,192,39312,1,0,0:0:0:8:
320,192,39394,1,0,0:0:0:8:
448,192,39476,1,0,0:0:0:8:
320,192,39557,1,0,0:0:0:8:
192,192,39639,1,0,0:0:0:8:
64,192,39721,1,0,0:0:0:8:
448,192,39803,1,0,0:0:0:8:
320,192,39803,1,0,0:0:0:8:
192,192,39884,1,0,0:0:0:8:
320,192,39966,1,0,0:0:0:8:
448,192,40048,1,0,0:0:0:8:
64,192,40130,1,0,0:0:0:8:
192,192,40211,1,0,0:0:0:8:
320,192,40293,1,0,0:0:0:8:
192,192,40375,1,0,0:0:0:8:
320,192,40457,1,0,0:0:0:8:
448,192,40457,1,0,0:0:0:8:
64,192,40538,1,0,0:0:0:8:
192,192,40620,1,0,0:0:0:8:
320,192,40702,1,0,0:0:0:8:
192,192,40783,1,0,0:0:0:8:
320,192,40865,1,0,0:0:0:8:
448,192,40947,1,0,0:0:0:8:
320,192,41029,1,0,0:0:0:8:
64,192,41110,128,0,42418:0:0:0:0:
192,192,41110,1,0,0:0:0:8:
320,192,41437,1,0,0:0:0:8:
448,192,41437,1,0,0:0:0:8:
448,192,41764,1,0,0:0:0:8:
192,192,41764,1,0,0:0:0:8:
192,192,41928,1,0,0:0:0:8:
448,192,42091,1,0,0:0:0:8:
320,192,42091,1,0,0:0:0:8:
320,192,42255,1,0,0:0:0:8:
192,192,42418,1,0,0:0:0:8:
448,192,42418,1,0,0:0:0:8:
448,192,42745,1,0,0:0:0:8:
64,192,42745,1,0,0:0:0:8:
448,192,43072,1,0,0:0:0:8:
64,192,43072,1,0,0:0:0:8:
192,192,43236,1,0,0:0:0:8:
320,192,43318,1,0,0:0:0:8:
448,192,43399,128,0,43726:0:0:0:0:
192,192,43399,1,0,0:0:0:8:
64,192,43399,1,0,0:0:0:8:
64,192,43726,1,0,0:0:0:8:
320,192,43726,1,0,0:0:0:8:
192,192,43890,1,0,0:0:0:8:
320,192,44053,1,0,0:0:0:8:
448,192,44217,128,0,44380:0:0:0:0:
192,192,44217,1,0,0:0:0:8:
64,192,44380,1,0,0:0:0:8:
192,192,44544,1,0,0:0:0:8:
320,192,44707,128,0,44871:0:0:0:0:
448,192,44707,1,0,0:0:0:8:
64,192,44871,1,0,0:0:0:8:
192,192,45034,1,0,0:0:0:8:
320,192,45198,1,0,0:0:0:8:
448,192,45198,1,0,0:0:0:8:
64,192,45361,1,0,0:0:0:8:
448,192,45361,1,0,0:0:0:8:
192,192,45525,1,0,0:0:0:8:
64,192,45688,1,0,0:0:0:8:
448,192,45688,128,0,46015:0:0:0:0:
320,192,45852,1,0,0:0:0:8:
64,192,46015,128,0,46342:0:0:0:0:
192,192,46015,1,0,0:0:0:8:
320,192,46179,1,0,0:0:0:8:
448,192,46342,1,0,0:0:0:8:
192,192,46342,1,0,0:0:0:8:
320,192,46506,1,0,0:0:0:8:
192,192,46669,1,0,0:0:0:8:
64,192,46833,128,0,46996:0:0:0:0:
320,192,46833,1,0,0:0:0:8:
448,192,46996,1,0,0:0:0:8:
320,192,47160,1,0,0:0:0:8:
192,192,47323,128,0,47486:0:0:0:0:
64,192,47323,1,0,0:0:0:8:
448,192,47486,1,0,0:0:0:8:
320,192,47650,1,0,0:0:0:8:
448,192,47813,1,0,0:0:0:8:
192,192,47813,1,0,0:0:0:8:
448,192,47977,1,0,0:0:0:8:
64,192,47977,1,0,0:0:0:8:
192,192,48140,1,0,0:0:0:8:
448,192,48304,128,0,48631:0:0:0:0:
320,192,48304,1,0,0:0:0:8:
64,192,48467,1,0,0:0:0:8:
320,192,48631,128,0,48958:0:0:0:0:
192,192,48631,1,0,0:0:0:8:
64,192,48794,1,0,0:0:0:8:
64,192,48958,1,0,0:0:0:8:
448,192,48958,1,0,0:0:0:8:
192,192,49121,1,0,0:0:0:8:
320,192,49285,1,0,0:0:0:8:
64,192,49448,128,0,49612:0:0:0:0:
448,192,49448,1,0,0:0:0:8:
192,192,49612,1,0,0:0:0:8:
320,192,49775,1,0,0:0:0:8:
448,192,49939,128,0,50102:0:0:0:0:
64,192,49939,1,0,0:0:0:8:
192,192,50102,1,0,0:0:0:8:
320,192,50266,1,0,0:0:0:8:
64,192,50429,1,0,0:0:0:8:
448,192,50429,1,0,0:0:0:8:
64,192,50593,1,0,0:0:0:8:
192,192,50593,1,0,0:0:0:8:
320,192,50756,1,0,0:0:0:8:
192,192,50920,128,0,51247:0:0:0:0:
448,192,50920,1,0,0:0:0:8:
64,192,51083,1,0,0:0:0:8:
320,192,51247,128,0,51574:0:0:0:0:
448,192,51247,1,0,0:0:0:8:
192,192,51410,1,0,0:0:0:8:
64,192,51574,1,0,0:0:0:8:
448,192,51574,1,0,0:0:0:8:
192,192,51737,1,0,0:0:0:8:
320,192,51901,1,0,0:0:0:8:
448,192,52064,1,0,0:0:0:8:
64,192,52064,1,0,0:0:0:8:
192,192,52228,1,0,0:0:0:8:
320,192,52391,1,0,0:0:0:8:
448,192,52555,1,0,0:0:0:8:
64,192,52555,1,0,0:0:0:8:
192,192,52718,1,0,0:0:0:8:
320,192,52718,1,0,0:0:0:8:
64,192,52882,1,0,0:0:0:8:
448,192,52882,1,0,0:0:0:8:
320,192,53045,128,0,53209:0:0:0:0:
448,192,53209,1,0,0:0:0:8:
64,192,53209,1,0,0:0:0:8:
192,192,53372,1,0,0:0:0:8:
64,192,53536,1,0,0:0:0:8:
448,192,53536,1,0,0:0:0:8:
192,192,53617,1,0,0:0:0:8:
320,192,53699,1,0,0:0:0:8:
448,192,53781,1,0,0:0:0:8:
192,192,53863,1,0,0:0:0:8:
64,192,53863,128,0,54189:0:0:0:0:
320,192,53944,1,0,0:0:0:8:
448,192,54026,1,0,0:0:0:8:
320,192,54108,1,0,0:0:0:8:
192,192,54189,1,0,0:0:0:8:
448,192,54189,1,0,0:0:0:8:
320,192,54271,1,0,0:0:0:8:
192,192,54353,1,0,0:0:0:8:
64,192,54435,1,0,0:0:0:8:
320,192,54516,1,0,0:0:0:8:
448,192,54598,1,0,0:0:0:8:
64,192,54680,1,0,0:0:0:8:
192,192,54762,1,0,0:0:0:8:
448,192,54843,1,0,0:0:0:8:
320,192,54843,1,0,0:0:0:8:
192,192,54925,1,0,0:0:0:8:
64,192,55007,1,0,0:0:0:8:
192,192,55089,1,0,0:0:0:8:
320,192,55170,1,0,0:0:0:8:
448,192,55252,1,0,0:0:0:8:
64,192,55334,1,0,0:0:0:8:
192,192,55416,1,0,0:0:0:8:
448,192,55497,1,0,0:0:0:8:
320,192,55497,1,0,0:0:0:8:
320,192,55661,1,0,0:0:0:8:
448,192,55824,1,0,0:0:0:8:
192,192,55824,1,0,0:0:0:8:
64,192,55879,1,0,0:0:0:8:
192,192,55933,1,0,0:0:0:8:
320,192,55988,1,0,0:0:0:8:
64,192,56151,1,0,0:0:0:8:
192,192,56151,1,0,0:0:0:8:
448,192,56315,1,0,0:0:0:8:
192,192,56478,1,0,0:0:0:8:
320,192,56560,1,0,0:0:0:8:
448,192,56642,1,0,0:0:0:8:
320,192,56724,1,0,0:0:0:8:
448,192,56805,1,0,0:0:0:8:
192,192,56805,1,0,0:0:0:8:
320,192,56969,1,0,0:0:0:8:
64,192,57132,1,0,0:0:0:8:
192,192,57214,1,0,0:0:0:8:
320,192,57296,1,0,0:0:0:8:
448,192,57377,1,0,0:0:0:8:
320,192,57459,1,0,0:0:0:8:
192,192,57459,128,0,57786:0:0:0:0:
64,192,57786,128,0,58113:0:0:0:0:
448,192,57786,1,0,0:0:0:8:
320,192,58113,128,0,58440:0:0:0:0:
192,192,58113,1,0,0:0:0:8:
448,192,58440,128,0,58767:0:0:0:0:
64,192,58440,1,0,0:0:0:8:
192,192,58604,1,0,0:0:0:8:
320,192,58767,1,0,0:0:0:8:
64,192,58767,1,0,0:0:0:8:
192,192,58931,1,0,0:0:0:8:
448,192,58931,1,0,0:0:0:8:
320,192,59012,1,0,0:0:0:8:
448,192,59094,1,0,0:0:0:8:
64,192,59094,1,0,0:0:0:8:
192,192,59176,1,0,0:0:0:8:
320,192,59258,1,0,0:0:0:8:
448,192,59339,1,0,0:0:0:8:
192,192,59421,1,0,0:0:0:8:
64,192,59421,1,0,0:0:0:8:
320,192,59421,1,0,0:0:0:8:
64,192,59748,1,0,0:0:0:8:
320,192,59748,1,0,0:0:0:8:
448,192,59748,1,0,0:0:0:8:
64,192,60075,1,0,0:0:0:8:
192,192,60075,1,0,0:0:0:8:
448,192,60075,1,0,0:0:0:8:
320,192,60402,1,0,0:0:0:8:
64,192,60402,1,0,0:0:0:8:
448,192,60484,1,0,0:0:0:8:
320,192,60565,1,0,0:0:0:8:
192,192,60647,1,0,0:0:0:8:
320,192,60729,1,0,0:0:0:8:
448,192,60729,1,0,0:0:0:8:
64,192,60729,1,0,0:0:0:8:
448,192,61056,1,0,0:0:0:8:
64,192,61056,1,0,0:0:0:8:
320,192,61056,1,0,0:0:0:8:
320,192,61219,1,0,0:0:0:8:
64,192,61383,1,0,0:0:0:8:
192,192,61383,1,0,0:0:0:8:
448,192,61383,1,0,0:0:0:8:
192,192,61546,1,0,0:0:0:8:
448,192,61628,1,0,0:0:0:8:
320,192,61710,1,0,0:0:0:8:
64,192,61710,1,0,0:0:0:8:
192,192,61792,1,0,0:0:0:8:
320,192,61873,1,0,0:0:0:8:
448,192,61955,1,0,0:0:0:8:
320,192,62037,1,0,0:0:0:8:
64,192,62037,1,0,0:0:0:8:
192,192,62037,1,0,0:0:0:8:
448,192,62364,1,0,0:0:0:8:
64,192,62364,1,0,0:0:0:8:
320,192,62446,1,0,0:0:0:8:
192,192,62527,1,0,0:0:0:8:
64,192,62609,1,0,0:0:0:8:
320,192,62691,1,0,0:0:0:8:
192,192,62691,1,0,0:0:0:8:
448,192,62691,1,0,0:0:0:8:
320,192,63018,1,0,0:0:0:8:
64,192,63018,1,0,0:0:0:8:
448,192,63100,1,0,0:0:0:8:
320,192,63181,1,0,0:0:0:8:
192,192,63263,1,0,0:0:0:8:
448,192,63345,1,0,0:0:0:8:
320,192,63345,1,0,0:0:0:8:
64,192,63345,1,0,0:0:0:8:
192,192,63508,1,0,0:0:0:8:
448,192,63590,1,0,0:0:0:8:
64,192,63672,1,0,0:0:0:8:
320,192,63672,1,0,0:0:0:8:
192,192,63754,1,0,0:0:0:8:
64,192,63835,1,0,0:0:0:8:
320,192,63835,1,0,0:0:0:8:
448,192,63917,1,0,0:0:0:8:
320,192,63999,1,0,0:0:0:8:
192,192,63999,1,0,0:0:0:8:
64,192,63999,128,0,64326:0:0:0:0:
448,192,64162,1,0,0:0:0:8:
192,192,64326,1,0,0:0:0:8:
448,192,64326,1,0,0:0:0:8:
320,192,64326,128,0,64653:0:0:0:0:
64,192,64489,1,0,0:0:0:8:
64,192,64653,1,0,0:0:0:8:
448,192,64653,1,0,0:0:0:8:
192,192,64653,1,0,0:0:0:8:
192,192,64980,1,0,0:0:0:8:
64,192,65089,1,0,0:0:0:8:
320,192,65198,1,0,0:0:0:8:
192,192,65307,1,0,0:0:0:8:
448,192,65416,1,0,0:0:0:8:
320,192,65525,1,0,0:0:0:8:
64,192,65634,1,0,0:0:0:8:
192,192,65743,1,0,0:0:0:8:
320,192,65852,1,0,0:0:0:8:
320,192,65961,1,0,0:0:0:8:
64,192,66124,1,0,0:0:0:8:
192,192,66179,1,0,0:0:0:8:
320,192,66233,1,0,0:0:0:8:
64,192,66288,1,0,0:0:0:8:
448,192,66288,128,0,66615:0:0:0:0:
64,192,66615,1,0,0:0:0:8:
320,192,66615,128,0,66942:0:0:0:0:
192,192,66942,128,0,67268:0:0:0:0:
448,192,66942,1,0,0:0:0:8:
64,192,67268,1,0,0:0:0:8:
320,192,67268,1,0,0:0:0:8:
448,192,67432,1,0,0:0:0:8:
192,192,67595,1,0,0:0:0:8:
320,192,67595,1,0,0:0:0:8:
448,192,67677,1,0,0:0:0:8:
320,192,67759,1,0,0:0:0:8:
192,192,67841,1,0,0:0:0:8:
448,192,67922,1,0,0:0:0:8:
64,192,67922,1,0,0:0:0:8:
192,192,68086,1,0,0:0:0:8:
320,192,68249,1,0,0:0:0:8:
64,192,68249,1,0,0:0:0:8:
192,192,68331,1,0,0:0:0:8:
320,192,68413,1,0,0:0:0:8:
448,192,68495,1,0,0:0:0:8:
64,192,68576,1,0,0:0:0:8:
320,192,68576,1,0,0:0:0:8:
192,192,68740,1,0,0:0:0:8:
448,192,68903,1,0,0:0:0:8:
64,192,68903,1,0,0:0:0:8:
320,192,68985,1,0,0:0:0:8:
192,192,69067,1,0,0:0:0:8:
64,192,69149,1,0,0:0:0:8:
192,192,69230,1,0,0:0:0:8:
320,192,69230,1,0,0:0:0:8:
448,192,69394,1,0,0:0:0:8:
192,192,69557,128,0,69884:0:0:0:0:
320,192,69557,1,0,0:0:0:8:
448,192,69721,1,0,0:0:0:8:
448,192,69884,1,0,0:0:0:8:
64,192,69884,1,0,0:0:0:8:
320,192,69884,1,0,0:0:0:8:
320,192,70211,1,0,0:0:0:8:
448,192,70320,1,0,0:0:0:8:
192,192,70429,1,0,0:0:0:8:
320,192,70538,1,0,0:0:0:8:
64,192,70647,1,0,0:0:0:8:
192,192,70756,1,0,0:0:0:8:
448,192,70865,1,0,0:0:0:8:
320,192,70974,1,0,0:0:0:8:
192,192,71083,1,0,0:0:0:8:
192,192,71192,1,0,0:0:0:8:
320,192,71356,1,0,0:0:0:8:
192,192,71410,1,0,0:0:0:8:
64,192,71465,1,0,0:0:0:8:
448,192,71519,128,0,71846:0:0:0:0:
320,192,71519,1,0,0:0:0:8:
192,192,71846,128,0,72173:0:0:0:0:
64,192,71846,1,0,0:0:0:8:
320,192,72173,128,0,72500:0:0:0:0:
448,192,72173,1,0,0:0:0:8:
64,192,72337,1,0,0:0:0:8:
448,192,72500,1,0,0:0:0:8:
192,192,72500,1,0,0:0:0:8:
64,192,72500,1,0,0:0:0:8:
448,192,72664,1,0,0:0:0:8:
64,192,72827,1,0,0:0:0:8:
320,192,72827,1,0,0:0:0:8:
192,192,72909,1,0,0:0:0:8:
320,192,72991,1,0,0:0:0:8:
448,192,73072,1,0,0:0:0:8:
320,192,73154,1,0,0:0:0:8:
192,192,73154,1,0,0:0:0:8:
64,192,73154,1,0,0:0:0:8:
64,192,73318,1,0,0:0:0:8:
320,192,73481,1,0,0:0:0:8:
192,192,73481,1,0,0:0:0:8:
448,192,73563,1,0,0:0:0:8:
320,192,73645,1,0,0:0:0:8:
192,192,73726,1,0,0:0:0:8:
64,192,73808,1,0,0:0:0:8:
320,192,73808,1,0,0:0:0:8:
448,192,73808,1,0,0:0:0:8:
192,192,73971,1,0,0:0:0:8:
448,192,74135,1,0,0:0:0:8:
64,192,74135,1,0,0:0:0:8:
320,192,74217,1,0,0:0:0:8:
192,192,74298,1,0,0:0:0:8:
64,192,74380,1,0,0:0:0:8:
192,192,74462,1,0,0:0:0:8:
448,192,74462,128,0,74789:0:0:0:0:
320,192,74625,1,0,0:0:0:8:
192,192,74789,1,0,0:0:0:8:
64,192,74789,128,0,75116:0:0:0:0:
320,192,74871,1,0,0:0:0:8:
448,192,74952,1,0,0:0:0:8:
320,192,75034,1,0,0:0:0:8:
192,192,75116,1,0,0:0:0:8:
448,192,75116,1,0,0:0:0:8:
64,192,75279,1,0,0:0:0:8:
448,192,75443,1,0,0:0:0:8:
192,192,75443,1,0,0:0:0:8:
320,192,75552,1,0,0:0:0:8:
192,192,75661,1,0,0:0:0:8:
64,192,75770,1,0,0:0:0:8:
320,192,75770,1,0,0:0:0:8:
448,192,75933,1,0,0:0:0:8:
320,192,76097,1,0,0:0:0:8:
448,192,76097,1,0,0:0:0:8:
64,192,76260,1,0,0:0:0:8:
192,192,76342,1,0,0:0:0:8:
448,192,76424,128,0,76751:0:0:0:0:
320,192,76424,1,0,0:0:0:8:
192,192,76587,1,0,0:0:0:8:
320,192,76751,128,0,77078:0:0:0:0:
64,192,76751,1,0,0:0:0:8:
192,192,76914,1,0,0:0:0:8:
448,192,77078,128,0,77405:0:0:0:0:
64,192,77078,1,0,0:0:0:8:
192,192,77241,1,0,0:0:0:8:
64,192,77405,128,0,77732:0:0:0:0:
320,192,77405,1,0,0:0:0:8:
448,192,77568,1,0,0:0:0:8:
192,192,77732,1,0,0:0:0:8:
448,192,77732,1,0,0:0:0:8:
320,192,77895,1,0,0:0:0:8:
64,192,78059,1,0,0:0:0:8:
448,192,78059,1,0,0:0:0:8:
192,192,78168,1,0,0:0:0:8:
320,192,78277,1,0,0:0:0:8:
448,192,78386,1,0,0:0:0:8:
192,192,78386,1,0,0:0:0:8:
64,192,78549,1,0,0:0:0:8:
192,192,78713,1,0,0:0:0:8:
64,192,78713,1,0,0:0:0:8:
448,192,78876,1,0,0:0:0:8:
320,192,78958,1,0,0:0:0:8:
192,192,79040,1,0,0:0:0:8:
64,192,79040,128,0,79367:0:0:0:0:
320,192,79203,1,0,0:0:0:8:
448,192,79367,128,0,79694:0:0:0:0:
192,192,79367,1,0,0:0:0:8:
64,192,79530,1,0,0:0:0:8:
192,192,79694,128,0,80021:0:0:0:0:
320,192,79694,1,0,0:0:0:8:
448,192,79857,1,0,0:0:0:8:
320,192,80021,128,0,80348:0:0:0:0:
64,192,80021,1,0,0:0:0:8:
448,192,80021,1,0,0:0:0:8:
192,192,80184,1,0,0:0:0:8:
64,192,80348,1,0,0:0:0:8:
448,192,80348,1,0,0:0:0:8:
192,192,80348,1,0,0:0:0:8:
192,192,80511,1,0,0:0:0:8:
448,192,80674,1,0,0:0:0:8:
64,192,80674,1,0,0:0:0:8:
320,192,80783,1,0,0:0:0:8:
192,192,80892,1,0,0:0:0:8:
64,192,81001,1,0,0:0:0:8:
448,192,81001,1,0,0:0:0:8:
192,192,81165,1,0,0:0:0:8:
64,192,81328,1,0,0:0:0:8:
448,192,81328,1,0,0:0:0:8:
192,192,81492,1,0,0:0:0:8:
320,192,81574,1,0,0:0:0:8:
64,192,81655,128,0,81982:0:0:0:0:
448,192,81655,128,0,81819:0:0:0:0:
320,192,81819,1,0,0:0:0:8:
192,192,81982,128,0,82309:0:0:0:0:
448,192,81982,128,0,82146:0:0:0:0:
64,192,82146,1,0,0:0:0:8:
448,192,82309,128,0,82636:0:0:0:0:
320,192,82309,128,0,82473:0:0:0:0:
64,192,82473,1,0,0:0:0:8:
192,192,82636,128,0,82963:0:0:0:0:
320,192,82636,128,0,82800:0:0:0:0:
448,192,82800,1,0,0:0:0:8:
64,192,82963,1,0,0:0:0:8:
448,192,82963,1,0,0:0:0:8:
64,192,83127,1,0,0:0:0:8:
192,192,83290,1,0,0:0:0:8:
320,192,83290,1,0,0:0:0:8:
320,192,83454,1,0,0:0:0:8:
448,192,83617,1,0,0:0:0:8:
64,192,83617,1,0,0:0:0:8:
448,192,83781,1,0,0:0:0:8:
320,192,83944,1,0,0:0:0:8:
192,192,83944,1,0,0:0:0:8:
320,192,84108,1,0,0:0:0:8:
64,192,84189,1,0,0:0:0:8:
192,192,84271,1,0,0:0:0:8:
448,192,84271,1,0,0:0:0:8:
320,192,84353,1,0,0:0:0:8:
192,192,84435,1,0,0:0:0:8:
64,192,84516,1,0,0:0:0:8:
320,192,84598,1,0,0:0:0:8:
192,192,84598,1,0,0:0:0:8:
448,192,84680,1,0,0:0:0:8:
320,192,84762,1,0,0:0:0:8:
192,192,84843,1,0,0:0:0:8:
320,192,84925,1,0,0:0:0:8:
448,192,84925,1,0,0:0:0:8:
192,192,85007,1,0,0:0:0:8:
64,192,85007,1,0,0:0:0:8:
448,192,85089,1,0,0:0:0:8:
320,192,85089,1,0,0:0:0:8:
192,192,85252,1,0,0:0:0:8:
64,192,85307,1,0,0:0:0:8:
448,192,85361,1,0,0:0:0:8:
320,192,85416,1,0,0:0:0:8:
192,192,85470,1,0,0:0:0:8:
64,192,85525,1,0,0:0:0:8:
448,192,85579,1,0,0:0:0:8:
192,192,85579,1,0,0:0:0:8:
320,192,85579,1,0,0:0:0:8:
448,192,85743,1,0,0:0:0:8:
192,192,85906,1,0,0:0:0:8:
64,192,85906,1,0,0:0:0:8:
192,192,86070,1,0,0:0:0:8:
64,192,86070,1,0,0:0:0:8:
448,192,86233,1,0,0:0:0:8:
448,192,86397,1,0,0:0:0:8:
192,192,86560,1,0,0:0:0:8:
64,192,86560,1,0,0:0:0:8:
192,192,86724,1,0,0:0:0:8:
64,192,86724,1,0,0:0:0:8:
320,192,86887,1,0,0:0:0:8:
320,192,87051,1,0,0:0:0:8:
64,192,87214,1,0,0:0:0:8:
192,192,87214,1,0,0:0:0:8:
64,192,87377,1,0,0:0:0:8:
192,192,87377,1,0,0:0:0:8:
448,192,87541,1,0,0:0:0:8:
448,192,87704,1,0,0:0:0:8:
192,192,87868,1,0,0:0:0:8:
64,192,87868,1,0,0:0:0:8:
192,192,88031,1,0,0:0:0:8:
64,192,88031,1,0,0:0:0:8:
64,192,88195,1,0,0:0:0:8:
320,192,88195,1,0,0:0:0:8:
448,192,88195,1,0,0:0:0:8:
320,192,88358,1,0,0:0:0:8:
192,192,88522,1,0,0:0:0:8:
64,192,88522,1,0,0:0:0:8:
192,192,88685,1,0,0:0:0:8:
64,192,88685,1,0,0:0:0:8:
64,192,88849,1,0,0:0:0:8:
448,192,88849,1,0,0:0:0:8:
320,192,88849,1,0,0:0:0:8:
448,192,89012,1,0,0:0:0:8:
64,192,89176,1,0,0:0:0:8:
320,192,89176,1,0,0:0:0:8:
64,192,89339,1,0,0:0:0:8:
320,192,89339,1,0,0:0:0:8:
64,192,89503,1,0,0:0:0:8:
448,192,89503,1,0,0:0:0:8:
192,192,89503,1,0,0:0:0:8:
448,192,89666,1,0,0:0:0:8:
320,192,89666,1,0,0:0:0:8:
64,192,89830,1,0,0:0:0:8:
192,192,89830,1,0,0:0:0:8:
448,192,89830,1,0,0:0:0:8:
320,192,89993,1,0,0:0:0:8:
64,192,89993,1,0,0:0:0:8:
320,192,90157,1,0,0:0:0:8:
448,192,90157,1,0,0:0:0:8:
192,192,90157,1,0,0:0:0:8:
64,192,90320,1,0,0:0:0:8:
320,192,90320,1,0,0:0:0:8:
64,192,90484,1,0,0:0:0:8:
192,192,90484,1,0,0:0:0:8:
448,192,90484,1,0,0:0:0:8:
320,192,90647,1,0,0:0:0:8:
192,192,90647,1,0,0:0:0:8:
192,192,90811,1,0,0:0:0:8:
448,192,90811,128,0,91138:0:0:0:0:
64,192,90811,1,0,0:0:0:8:
320,192,91138,1,0,0:0:0:8:
192,192,91219,1,0,0:0:0:8:
64,192,91301,1,0,0:0:0:8:
192,192,91383,1,0,0:0:0:8:
320,192,91465,1,0,0:0:0:8:
192,192,91546,1,0,0:0:0:8:
64,192,91628,1,0,0:0:0:8:
192,192,91710,1,0,0:0:0:8:
448,192,91792,1,0,0:0:0:8:
320,192,91873,1,0,0:0:0:8:
192,192,91955,1,0,0:0:0:8:
64,192,92037,1,0,0:0:0:8:
448,192,92119,1,0,0:0:0:8:
320,192,92200,1,0,0:0:0:8:
192,192,92282,1,0,0:0:0:8:
64,192,92364,1,0,0:0:0:8:
320,192,92446,1,0,0:0:0:8:
448,192,92527,1,0,0:0:0:8:
320,192,92609,1,0,0:0:0:8:
192,192,92691,1,0,0:0:0:8:
320,192,92773,1,0,0:0:0:8:
448,192,92854,1,0,0:0:0:8:
320,192,92936,1,0,0:0:0:8:
192,192,93018,1,0,0:0:0:8:
64,192,93100,1,0,0:0:0:8:
192,192,93181,1,0,0:0:0:8:
320,192,93263,1,0,0:0:0:8:
448,192,93345,1,0,0:0:0:8:
64,192,93427,128,0,93754:0:0:0:0:
320,192,93427,128,0,93754:0:0:0:0:
448,192,93754,1,0,0:0:0:8:
320,192,93835,1,0,0:0:0:8:
192,192,93917,1,0,0:0:0:8:
320,192,93999,1,0,0:0:0:8:
448,192,94080,1,0,0:0:0:8:
320,192,94162,1,0,0:0:0:8:
192,192,94244,1,0,0:0:0:8:
320,192,94326,1,0,0:0:0:8:
64,192,94407,1,0,0:0:0:8:
192,192,94489,1,0,0:0:0:8:
320,192,94571,1,0,0:0:0:8:
448,192,94653,1,0,0:0:0:8:
64,192,94734,1,0,0:0:0:8:
192,192,94816,1,0,0:0:0:8:
320,192,94898,1,0,0:0:0:8:
448,192,94980,1,0,0:0:0:8:
192,192,95061,1,0,0:0:0:8:
320,192,95143,1,0,0:0:0:8:
448,192,95225,1,0,0:0:0:8:
320,192,95307,1,0,0:0:0:8:
192,192,95388,1,0,0:0:0:8:
320,192,95470,1,0,0:0:0:8:
448,192,95552,1,0,0:0:0:8:
320,192,95634,1,0,0:0:0:8:
64,192,95715,1,0,0:0:0:8:
192,192,95797,1,0,0:0:0:8:
320,192,95879,1,0,0:0:0:8:
192,192,95961,1,0,0:0:0:8:
64,192,96042,1,0,0:0:0:8:
320,192,96124,1,0,0:0:0:8:
448,192,96206,1,0,0:0:0:8:
320,192,96288,1,0,0:0:0:8:
192,192,96369,1,0,0:0:0:8:
320,192,96451,1,0,0:0:0:8:
192,192,96533,1,0,0:0:0:8:
64,192,96615,1,0,0:0:0:8:
448,192,96696,128,0,97023:0:0:0:0:
192,192,96696,128,0,97023:0:0:0:0:
448,192,97350,1,0,0:0:0:8:
320,192,97432,1,0,0:0:0:8:
192,192,97514,1,0,0:0:0:8:
64,192,97595,1,0,0:0:0:8:
320,192,97677,1,0,0:0:0:8:
192,192,97759,1,0,0:0:0:8:
320,192,97841,1,0,0:0:0:8:
448,192,97922,1,0,0:0:0:8:
64,192,98004,128,0,98331:0:0:0:0:
320,192,98004,128,0,98331:0:0:0:0:
448,192,98658,1,0,0:0:0:8:
320,192,98740,1,0,0:0:0:8:
192,192,98822,1,0,0:0:0:8:
320,192,98903,1,0,0:0:0:8:
448,192,98985,1,0,0:0:0:8:
64,192,99067,1,0,0:0:0:8:
192,192,99149,1,0,0:0:0:8:
320,192,99230,1,0,0:0:0:8:
192,192,99312,128,0,99639:0:0:0:0:
448,192,99312,128,0,99639:0:0:0:0:
64,192,99639,128,0,99966:0:0:0:0:
320,192,99639,1,0,0:0:0:8:
448,192,99966,128,0,100293:0:0:0:0:
192,192,99966,128,0,100293:0:0:0:0:
64,192,100293,128,0,100457:0:0:0:0:
320,192,100293,128,0,100457:0:0:0:0:
64,192,100620,128,0,100783:0:0:0:0:
320,192,100620,128,0,100783:0:0:0:0:
448,192,100947,128,0,101110:0:0:0:0:
192,192,100947,128,0,101110:0:0:0:0:
448,192,101274,1,0,0:0:0:8:
192,192,101274,1,0,0:0:0:8:
64,192,101274,1,0,0:0:0:8:
64,192,101601,128,0,101764:0:0:0:0:
448,192,101601,128,0,101764:0:0:0:0:
320,192,101764,128,0,101928:0:0:0:0:
192,192,101764,128,0,101928:0:0:0:0:
64,192,101928,128,0,102091:0:0:0:0:
448,192,101928,128,0,102091:0:0:0:0:
320,192,102255,128,0,102418:0:0:0:0:
192,192,102255,128,0,102418:0:0:0:0:
448,192,102582,1,0,0:0:0:8:
64,192,102582,1,0,0:0:0:8:
320,192,102745,1,0,0:0:0:8:
64,192,102909,128,0,103072:0:0:0:0:
448,192,102909,1,0,0:0:0:8:
192,192,103072,128,0,103236:0:0:0:0:
320,192,103236,1,0,0:0:0:8:
64,192,103236,1,0,0:0:0:8:
448,192,103399,1,0,0:0:0:8:
192,192,103399,1,0,0:0:0:8:
320,192,103563,128,0,103726:0:0:0:0:
64,192,103563,1,0,0:0:0:8:
192,192,103726,128,0,103890:0:0:0:0:
448,192,103890,1,0,0:0:0:8:
64,192,103890,1,0,0:0:0:8:
320,192,103890,1,0,0:0:0:8:
64,192,104217,128,0,104380:0:0:0:0:
448,192,104217,128,0,104380:0:0:0:0:
192,192,104380,128,0,104544:0:0:0:0:
320,192,104380,128,0,104544:0:0:0:0:
64,192,104544,128,0,104707:0:0:0:0:
448,192,104544,128,0,104707:0:0:0:0:
192,192,104871,128,0,105034:0:0:0:0:
320,192,104871,128,0,105034:0:0:0:0:
448,192,105198,1,0,0:0:0:8:
64,192,105198,1,0,0:0:0:8:
192,192,105361,1,0,0:0:0:8:
320,192,105525,128,0,105688:0:0:0:0:
448,192,105525,1,0,0:0:0:8:
64,192,105688,128,0,105852:0:0:0:0:
448,192,105852,1,0,0:0:0:8:
192,192,105852,1,0,0:0:0:8:
448,192,106015,5,0,0:0:0:8:
320,192,106015,1,0,0:0:0:8:
192,192,106097,1,0,0:0:0:8:
64,192,106097,1,0,0:0:0:8:
448,192,106179,128,0,106506:0:0:0:0:
320,192,106179,1,0,0:0:0:8:
192,192,106342,1,0,0:0:0:8:
64,192,106506,1,0,0:0:0:8:
320,192,106506,1,0,0:0:0:8:
192,192,106587,1,0,0:0:0:8:
320,192,106669,1,0,0:0:0:8:
448,192,106751,1,0,0:0:0:8:
192,192,106833,1,0,0:0:0:8:
320,192,106833,1,0,0:0:0:8:
64,192,106914,1,0,0:0:0:8:
192,192,106996,1,0,0:0:0:8:
320,192,107078,1,0,0:0:0:8:
64,192,107160,128,0,107486:0:0:0:0:
448,192,107160,1,0,0:0:0:8:
192,192,107160,1,0,0:0:0:8:
320,192,107323,1,0,0:0:0:8:
192,192,107486,1,0,0:0:0:8:
448,192,107486,1,0,0:0:0:8:
64,192,107650,1,0,0:0:0:8:
320,192,107650,1,0,0:0:0:8:
320,192,107813,1,0,0:0:0:8:
448,192,107813,1,0,0:0:0:8:
192,192,107895,1,0,0:0:0:8:
320,192,107977,1,0,0:0:0:8:
448,192,108059,1,0,0:0:0:8:
192,192,108140,1,0,0:0:0:8:
320,192,108140,1,0,0:0:0:8:
64,192,108222,1,0,0:0:0:8:
192,192,108304,1,0,0:0:0:8:
320,192,108386,1,0,0:0:0:8:
64,192,108467,128,0,108794:0:0:0:0:
448,192,108467,1,0,0:0:0:8:
192,192,108467,1,0,0:0:0:8:
320,192,108631,1,0,0:0:0:8:
192,192,108794,1,0,0:0:0:8:
448,192,108794,1,0,0:0:0:8:
320,192,108958,1,0,0:0:0:8:
64,192,108958,1,0,0:0:0:8:
320,192,109121,1,0,0:0:0:8:
448,192,109121,1,0,0:0:0:8:
192,192,109203,1,0,0:0:0:8:
320,192,109285,1,0,0:0:0:8:
448,192,109367,1,0,0:0:0:8:
64,192,109448,1,0,0:0:0:8:
320,192,109448,1,0,0:0:0:8:
192,192,109530,1,0,0:0:0:8:
320,192,109612,1,0,0:0:0:8:
192,192,109694,1,0,0:0:0:8:
320,192,109775,1,0,0:0:0:8:
64,192,109775,128,0,110102:0:0:0:0:
448,192,109857,1,0,0:0:0:8:
320,192,109939,1,0,0:0:0:8:
192,192,110021,1,0,0:0:0:8:
320,192,110102,1,0,0:0:0:8:
448,192,110102,128,0,110429:0:0:0:0:
192,192,110184,1,0,0:0:0:8:
64,192,110266,1,0,0:0:0:8:
192,192,110348,1,0,0:0:0:8:
320,192,110429,1,0,0:0:0:8:
64,192,110429,1,0,0:0:0:8:
192,192,110511,1,0,0:0:0:8:
320,192,110593,1,0,0:0:0:8:
192,192,110674,1,0,0:0:0:8:
320,192,110756,1,0,0:0:0:8:
64,192,110756,1,0,0:0:0:8:
448,192,110838,1,0,0:0:0:8:
320,192,110920,1,0,0:0:0:8:
192,192,111001,1,0,0:0:0:8:
64,192,111083,1,0,0:0:0:8:
320,192,111083,1,0,0:0:0:8:
192,192,111247,1,0,0:0:0:8:
448,192,111247,1,0,0:0:0:8:
448,192,111410,1,0,0:0:0:8:
64,192,111410,128,0,111737:0:0:0:0:
320,192,111410,1,0,0:0:0:8:
448,192,111737,5,0,0:0:0:8:
320,192,111737,1,0,0:0:0:8:
192,192,111737,1,0,0:0:0:8:
448,192,111901,1,0,0:0:0:8:
320,192,111901,1,0,0:0:0:8:
64,192,112064,1,0,0:0:0:8:
192,192,112064,1,0,0:0:0:8:
448,192,112146,1,0,0:0:0:8:
320,192,112228,1,0,0:0:0:8:
192,192,112309,1,0,0:0:0:8:
448,192,112391,1,0,0:0:0:8:
320,192,112391,1,0,0:0:0:8:
64,192,112391,1,0,0:0:0:8:
448,192,112555,1,0,0:0:0:8:
320,192,112555,1,0,0:0:0:8:
64,192,112718,1,0,0:0:0:8:
192,192,112718,1,0,0:0:0:8:
448,192,112800,1,0,0:0:0:8:
320,192,112882,1,0,0:0:0:8:
192,192,112963,1,0,0:0:0:8:
448,192,113045,1,0,0:0:0:8:
320,192,113045,1,0,0:0:0:8:
64,192,113045,1,0,0:0:0:8:
448,192,113209,1,0,0:0:0:8:
320,192,113209,1,0,0:0:0:8:
64,192,113372,1,0,0:0:0:8:
192,192,113372,1,0,0:0:0:8:
448,192,113454,1,0,0:0:0:8:
320,192,113536,1,0,0:0:0:8:
192,192,113617,1,0,0:0:0:8:
64,192,113699,128,0,114026:0:0:0:0:
320,192,113699,128,0,113863:0:0:0:0:
448,192,113863,1,0,0:0:0:8:
192,192,113863,1,0,0:0:0:8:
448,192,114026,128,0,114353:0:0:0:0:
192,192,114026,1,0,0:0:0:8:
320,192,114026,1,0,0:0:0:8:
64,192,114353,1,0,0:0:0:8:
192,192,114353,1,0,0:0:0:8:
320,192,114353,1,0,0:0:0:8:
64,192,114516,1,0,0:0:0:8:
192,192,114516,1,0,0:0:0:8:
448,192,114680,1,0,0:0:0:8:
320,192,114680,1,0,0:0:0:8:
64,192,114762,1,0,0:0:0:8:
192,192,114843,1,0,0:0:0:8:
320,192,114925,1,0,0:0:0:8:
192,192,115007,1,0,0:0:0:8:
448,192,115007,1,0,0:0:0:8:
64,192,115007,1,0,0:0:0:8:
64,192,115170,1,0,0:0:0:8:
192,192,115170,1,0,0:0:0:8:
448,192,115334,1,0,0:0:0:8:
320,192,115334,1,0,0:0:0:8:
64,192,115416,1,0,0:0:0:8:
192,192,115497,1,0,0:0:0:8:
320,192,115579,1,0,0:0:0:8:
448,192,115661,1,0,0:0:0:8:
64,192,115661,1,0,0:0:0:8:
192,192,115661,1,0,0:0:0:8:
64,192,115824,1,0,0:0:0:8:
192,192,115824,1,0,0:0:0:8:
448,192,115988,1,0,0:0:0:8:
320,192,115988,1,0,0:0:0:8:
64,192,116070,1,0,0:0:0:8:
192,192,116151,1,0,0:0:0:8:
320,192,116233,1,0,0:0:0:8:
192,192,116315,1,0,0:0:0:8:
64,192,116315,128,0,116642:0:0:0:0:
448,192,116315,128,0,116478:0:0:0:0:
320,192,116478,128,0,116642:0:0:0:0:
192,192,116642,1,0,0:0:0:8:
448,192,116642,1,0,0:0:0:8:
192,192,116969,1,0,0:0:0:8:
448,192,116969,1,0,0:0:0:8:
64,192,116969,1,0,0:0:0:8:
